Filecrypt zeigt vereinzelt Files als "n/a". Die Downloads sind trotzdem komplett.

DNS SERVER AENDERNum der staatlichen Zensur zu umgehen. Sollten wir von eurem Provider geseprrt werden, nutzt den TOR BROWSER oder ändert euren DNS SERVER.

Filmwünsche können bei uns im Forum abgegeben werden

Wir Speichern Nicht




 
 
 
Top Releases
Z.for.Zachariah.2015.German....
Monsieur.Claude.und.seine.To...
House.of.Sand.and.Fog.2003.G...
Hotel.Transsilvanien.3.Ein.M...
Hotel.Transsilvanien.3.Ein.M...
Jim.Knopf.und.Lukas.der.Loko...
Pin.Cushion.2017.MULTi.COMPL...
Hotel.Transsilvanien.3.Ein.M...
Le.Jeu.Nichts.zu.verbergen.2...
Sicario.2.Soldado.Sicario.Da...

Cinedubs
Venom.German.DL.AC3.Dubbed.1...
Venom.German.DL.AC3.Dubbed.7...
Das.Haus.der.geheimnisvollen...
Das.Haus.der.geheimnisvollen...
Venom.TS.LD.German.720p.x264...
Predator.Upgrade.German.AC3L...
Predator.Upgrade.German.AC3L...
The.Nun.German.DL.AC3.Dubbed...
The.Nun.German.DL.AC3.Dubbed...
The.Happytime.Murders.Kein.S...

Neuerscheinungen 2017-18
Liliane.Susewind.Ein.tierisc...
Liliane.Susewind.Ein.tierisc...
Unhinged.2017.COMPLETE.BLURA...
Unhinged.Verstoert.und.Ausge...
Unhinged.Verstoert.und.Ausge...
School.Daze.1988.COMPLETE.BL...
Megalodon.2018.COMPLETE.BLUR...
Megalodon.Die.Bestie.aus.der...
Megalodon.Die.Bestie.aus.der...
Gotti.2018.German.DL.AC3.5.1...

XXX
Naughty.3.Somes.13.XXX.720p....
Naughty.3.Somes.13.XXX.1080p...
Hitzefrei.18.07.02.Sina.Velv...
PornFidelity.E769.Layla.Love...
Hegre.18.11.20.Nuna.Nude.In....
PublicAgent.18.11.20.May.Tha...
PornMegaLoad.18.11.19.Brandy...
Hitzefrei.18.07.04.Texas.Pat...
Private.18.11.19.Dolly.Diore...
Nubiles.18.11.20.Sophie.Spar...
PornMegaLoad.18.11.18.Lexi.S...
PublicPickUps.18.11.20.Jazmi...
POVLife.18.11.19.Riley.Star....
PlayboyPlus.18.11.19.Anetta....
Private.18.11.20.Jessica.Lin...
SapphicErotica.18.11.19.Anai...
PornstarsLikeItBig.18.11.19....
GloryHole.18.11.19.Barbie.Si...
PlumperPass.18.11.19.Alexxxi...
RKPrime.18.11.19.Brett.Rossi...

3D
The.Art.of.Flight.3D.2011.Ge...
The.End.Of.The.World.3D.2010...
The.First.Avenger.Civil.War....
Die.Unglaublichen.2.2018.3D....
Skyscraper.3D.2018.MULTi.COM...
Ant-Man.And.The.Wasp.3D.2018...
Ant.Man.and.the.Wasp.3D.2018...
Die.Unglaublichen.2.3D.2018....
Die.Unglaublichen.2.2018.3D....
Die.Unglaublichen.2.2018.3D....
Sharknado.6.The.Last.One.3D....
Deep.Kleine.Helden.der.Tiefs...
Deep.3D.2017.MULTI.COMPLETE....
Detective.Dee.und.die.Legend...
Detective.Dee.und.die.Legend...

Old_Stuff
Akte.X.S03.German.DTS.DL.108...
Dunkirk.1958.COMPLETE.BLURAY...
Das.Wunder.von.Manhattan.199...
The.Amazing.Spiderman.2.Rise...
Rise.of.the.Predator.2014.Ge...
Detective.Dee.und.das.Geheim...
Detective.Dee.Und.Der.Fluch....
Ghost.Rider.Spirit.of.Vengea...
Species.IV.Das.Erwachen.2007...
Species.IV.Das.Erwachen.2007...
Hotel.Transsilvanien.2012.Ge...
The.Dead.2010.German.DL.1080...
The.Dead.2.India.2013.German...
Britney.Spears.Live.The.Femm...
Buffy.The.Vampire.Slayer.199...

Filme
Our.Evil.2017.German.AC3.DL....
Hass.aka.La.Haine.1995.Germa...
The.Game.1997.German.DL.1080...
Versus.The.Final.Knockout.20...
Hoelle.Afghanistan.2011.Germ...
Hoffnung.und.Ruhm.1987.Germa...
Sicario.2.Soldado.2018.Germa...
Skin.Creepers.2018.German.AC...
Auch.Voegel.koennen.toeten.1...
Roter.Drache.2002.German.DL....
Sicario.2.Soldado.2018.Germa...
Mondsuechtig.1987.German.AC3...
Baron.Noir.S02D01-2.MULTi.CO...
Stirb.Langsam.2.1990.DTS-HD....
Ash.vs.Evil.Dead.S02D01-2.MU...
Das.ist.Weihnachten.2013.Ger...
NCIS.S15.COMPLETE.German.AC...
Fantastic.Four.-.Rise.of.the...
Staatsfeind.Nr.1.Extended.Cu...
Snatch.S02.German.DL.DUBBED....
Snatch.S02.German.DL.DUBBED....
The.Walking.Dead.S09.GERMAN....
Vive.la.France.gesprengt.wir...
Killers.2014.German.DTS.1080...

 
 
Versus.The.Final.Knockout.2016.German.AC3.DL.1080p.BluRay.x265-FuN

Jahr: 2016
Genre: Action, Drama
Sprache: Deutsch AC3 | Englisch AC3
Laufzeit: 1h 50mn
Bitrate: 2 946 Kbps
Format: MKV
Größe: 2.27 GiB
Release:

Beschreibung:

Victor, genannt ‚The Hammer‘ ist ein MMA Star auf dem Weg zur Weltmeisterschaft. Nach einer heftigen Auseinandersetzung mit dem in Mafia-Kreisen berüchtigten Buchmacher Shark, erleidet Viktor schwerste Verletzungen bei einem Verkehrsunfall. Obwohl seine Kopfverletzungen lebensgefährlich sind, ist er trotzdem nicht gewillt, seinen Traum vom Gewinn des Weltmeistertitels aufzugeben. Dann verliebt sich auch noch Sharks Freundin Vera in Viktor, was die Feindseligkeiten zwischen den beiden Männern noch anheizt.




File size                                : 2.27 GiB
Duration                                 : 1h 50mn
Overall bit rate                         : 2 946 Kbps
Movie name                               : confi.versus.avc
Encoded date                             : UTC 2018-11-23 06:54:36
Writing application                      : mkvmerge v28.2.0 ('The Awakening') 64-bit
Writing library                          : libebml v1.3.6 + libmatroska v1.4.9

Video
ID                                       : 1
Format                                   : HEVC
Format/Info                              : High Efficiency Video Coding
Format profile                           : Main@L4.0
Codec ID                                 : V_MPEGH/ISO/HEVC
Duration                                 : 1h 50mn
Bit rate                                 : 2 120 Kbps
Width                                    : 1 920 pixels
Height                                   : 808 pixels
Display aspect ratio                     : 2.40:1
Frame rate mode                          : Constant
Frame rate                               : 24.000 fps
Color space                              : YUV
Chroma subsampling                       : 4:2:0
Bit depth                                : 8 bits
Bits/(Pixel*Frame)                       : 0.057
Stream size                              : 1.64 GiB (72%)
Writing library                          : x265 2.6:[Linux][GCC 6.4.0][64 bit] 8bit+10bit+12bit
Encoding settings                        : cpuid=1173503 / frame-threads=3 / wpp / no-pmode / no-pme / no-psnr / no-ssim / log-level=2 / input-csp=1 / input-res=1920x808 / interlace=0 / total-frames=0 / level-idc=0 / high-tier=1 / uhd-bd=0 / ref=2 / no-allow-non-conformance / no-repeat-headers / annexb / no-aud / no-hrd / info / hash=0 / no-temporal-layers / open-gop / min-keyint=24 / keyint=240 / bframes=4 / b-adapt=0 / b-pyramid / bframe-bias=0 / rc-lookahead=15 / lookahead-slices=5 / scenecut=40 / no-intra-refresh / ctu=64 / min-cu-size=8 / no-rect / no-amp / max-tu-size=32 / tu-inter-depth=1 / tu-intra-depth=1 / limit-tu=0 / rdoq-level=0 / dynamic-rd=0.00 / no-ssim-rd / signhide / no-tskip / nr-intra=0 / nr-inter=0 / no-constrained-intra / no-strong-intra-smoothing / max-merge=2 / limit-refs=3 / no-limit-modes / me=1 / subme=2 / merange=57 / temporal-mvp / weightp / no-weightb / no-analyze-src-pics / deblock=0:0 / sao / no-sao-non-deblock / rd=2 / early-skip / rskip / fast-intra / no-tskip-fast / no-cu-lossless / no-b-intra / no-splitrd-skip / rdpenalty=0 / psy-rd=2.00 / psy-rdoq=0.00 / no-rd-refine / analysis-reuse-mode=0 / no-lossless / cbqpoffs=0 / crqpoffs=0 / rc=crf / crf=21.0 / qcomp=0.60 / qpstep=4 / stats-write=0 / stats-read=0 / ipratio=1.40 / pbratio=1.30 / aq-mode=1 / aq-strength=1.00 / cutree / zone-count=0 / no-strict-cbr / qg-size=32 / no-rc-grain / qpmax=69 / qpmin=0 / no-const-vbv / sar=1 / overscan=0 / videoformat=5 / range=0 / colorprim=1 / transfer=1 / colormatrix=1 / chromaloc=0 / display-window=0 / max-cll=0,0 / min-luma=0 / max-luma=255 / log2-max-poc-lsb=8 / vui-timing-info / vui-hrd-info / slices=1 / no-opt-qp-pps / no-opt-ref-list-length-pps / no-multi-pass-opt-rps / scenecut-bias=0.05 / no-opt-cu-delta-qp / no-aq-motion / no-hdr / no-hdr-opt / no-dhdr10-opt / analysis-reuse-level=5 / scale-factor=0 / refine-intra=0 / refine-inter=0 / refine-mv=0 / no-limit-sao / ctu-info=0 / no-lowpass-dct / refine-mv-type=0 / copy-pic=1
Default                                  : Yes
Forced                                   : No
DURATION                                 : 01:50:26.584000000
NUMBER_OF_FRAMES                         : 159038
NUMBER_OF_BYTES                          : 1802588271
_STATISTICS_WRITING_APP                  : mkvmerge v28.2.0 ('The Awakening') 64-bit
_STATISTICS_WRITING_DATE_UTC             : 2018-11-23 06:54:36
_STATISTICS_TAGS                         : BPS DURATION NUMBER_OF_FRAMES NUMBER_OF_BYTES

Audio #1
ID                                       : 2
Format                                   : AC-3
Format/Info                              : Audio Coding 3
Mode extension                           : CM (complete main)
Format settings, Endianness              : Big
Codec ID                                 : A_AC3
Duration                                 : 1h 50mn
Bit rate mode                            : Constant
Bit rate                                 : 384 Kbps
Channel(s)                               : 6 channels
Channel positions                        : Front: L C R, Side: L R, LFE
Sampling rate                            : 48.0 KHz
Bit depth                                : 16 bits
Compression mode                         : Lossy
Stream size                              : 303 MiB (13%)
Title                                    : Surround
Language                                 : German
Default                                  : Yes
Forced                                   : No
DURATION                                 : 01:50:26.592000000
NUMBER_OF_FRAMES                         : 207081
NUMBER_OF_BYTES                          : 318076416
_STATISTICS_WRITING_APP                  : mkvmerge v28.2.0 ('The Awakening') 64-bit
_STATISTICS_WRITING_DATE_UTC             : 2018-11-23 06:54:36
_STATISTICS_TAGS                         : BPS DURATION NUMBER_OF_FRAMES NUMBER_OF_BYTES

Audio #2
ID                                       : 3
Format                                   : AC-3
Format/Info                              : Audio Coding 3
Mode extension                           : CM (complete main)
Format settings, Endianness              : Big
Codec ID                                 : A_AC3
Duration                                 : 1h 50mn
Bit rate mode                            : Constant
Bit rate                                 : 384 Kbps
Channel(s)                               : 6 channels
Channel positions                        : Front: L C R, Side: L R, LFE
Sampling rate                            : 48.0 KHz
Bit depth                                : 16 bits
Compression mode                         : Lossy
Stream size                              : 303 MiB (13%)
Title                                    : Surround
Language                                 : Russian
Default                                  : No
Forced                                   : No
DURATION                                 : 01:50:26.592000000
NUMBER_OF_FRAMES                         : 207081
NUMBER_OF_BYTES                          : 318076416
_STATISTICS_WRITING_APP                  : mkvmerge v28.2.0 ('The Awakening') 64-bit
_STATISTICS_WRITING_DATE_UTC             : 2018-11-23 06:54:36
_STATISTICS_TAGS                         : BPS DURATION NUMBER_OF_FRAMES NUMBER_OF_BYTES



Download:
Share Online Share OnlineShare OnlineShare Online
 

Kommentare